Cinelatinos – Ver o Descargar Películas Gratis

Vaiana DVD-RIP LATINO

Moana    

PG 107 min AnimaciónAventuraComediaFamiliaFantasía

8.0
IMDB: 8.0/10 38,012 votos

, , ,

, , ,

Nominated for 2 Oscars. Another 5 wins & 57 nominations.

USA

Reportar error

Vaiana DVD-RIP LATINO

Vaiana DVD-RIP LATINO, Una gran comedia de aventuras acerca de una enérgica adolescente que se embarca en una misión audaz para salvar a su pueblo. Durante su travesía, Moana, se encuentra con el alguna vez todopoderoso semidiós Maui, quien la guía en su aventura para convertirse en una experta navegante. Juntos atravesarán el océano en un viaje lleno de acción, en el que se encontrarán con enormes y feroces criaturas e imposibles desafíos; y en el camino, Moana cumple la misión de sus antepasados y descubre lo que siempre persiguió: su propia identidad.

Format : MPEG-4
Format profile : Base Media / Version 2
Codec ID : mp42 (isom/iso2/avc1/mp41)
File size : 1.04 GiB
Duration : 1 h 47 min
Overall bit rate : 1 389 kb/s
Encoded date : UTC 2036-02-06 06:28:16
Tagged date : UTC 2036-02-06 06:28:16
Writing application : HandBrake 0.10.2 2015060900

Video
ID : 1
Format : AVC
Format/Info : Advanced Video Codec
Format profile : Main@L4
Format settings, CABAC : Yes
Format settings, ReFrames : 4 frames
Codec ID : avc1
Codec ID/Info : Advanced Video Coding
Duration : 1 h 47 min
Bit rate : 1 159 kb/s
Width : 720 pixels
Height : 364 pixels
Display aspect ratio : 2.35:1
Frame rate mode : Variable
Frame rate : 23.976 FPS
Minimum frame rate : 18.727 FPS
Maximum frame rate : 29.970 FPS
Color space : YUV
Chroma subsampling : 4:2:0
Bit depth : 8 bits
Scan type : Progressive
Bits/(Pixel*Frame) : 0.184
Stream size : 889 MiB (83%)
Writing library : x264 core 142 r2479 dd79a61
Encoded date : UTC 2036-02-06 06:28:16
Tagged date : UTC 2036-02-06 06:28:16
Color range : Limited
Color primaries : BT.601 NTSC
Transfer characteristics : BT.709
Matrix coefficients : BT.601

Audio
ID : 2
Format : AC-3
Format/Info : Audio Coding 3
Format profile : Dolby Digital
Mode extension : CM (complete main)
Format settings, Endianness : Big
Codec ID : ac-3
Duration : 1 h 47 min
Bit rate mode : Constant
Bit rate : 224 kb/s
Channel(s) : 2 channels
Channel positions : Front: L R
Sampling rate : 48.0 kHz
Frame rate : 31.250 FPS (1536 spf)
Bit depth : 16 bits
Compression mode : Lossy
Stream size : 172 MiB (16%)
Title : Stereo / Stereo
Language : Spanish
Default : Yes
Alternate group : 1
Encoded date : UTC 2036-02-06 06:28:16
Tagged date : UTC 2036-02-06 06:28:16

Password RAR para Descomprimir: www.cinelatinos.com

Vaiana DVD-RIP LATINO
Vaiana DVD-RIP LATINO
Vaiana DVD-RIP LATINO
Vaiana DVD-RIP LATINO
Vaiana DVD-RIP LATINO
Vaiana DVD-RIP LATINO
Vaiana DVD-RIP LATINO
No links available
No downloads available

Traduce la web a tu idioma

AfrikaansAlbanianArabicArmenianAzerbaijaniBasqueBelarusianBulgarianCatalanChinese (Simplified)Chinese (Traditional)CroatianCzechDanishDutchEnglishEstonianFilipinoFinnishFrenchGalicianGeorgianGermanGreekHaitian CreoleHebrewHindiHungarianIcelandicIndonesianIrishItalianJapaneseKoreanLatvianLithuanianMacedonianMalayMalteseNorwegianPersianPolishPortugueseRomanianRussianSerbianSlovakSlovenianSpanishSwahiliSwedishThaiTurkishUkrainianUrduVietnameseWelshYiddish

Contador


contador de visitas para web

Películas relacionadas