Cinelatinos – Ver o Descargar Películas Gratis
DVD-Rip Latino ¡Upsss! ¿Dónde está Noé…? DVD-RIP LATINO
Reportar error

¡Upsss! ¿Dónde está Noé…? DVD-RIP LATINO

All Creatures Big and Small    

G 87 min ActualizadasAnimación

5.7
IMDB: 5.7/10 1,689 votos

,

, , ,

N/A

Germany, Belgium, Luxembourg, Ireland

130

Reportar error

¡Upsss! ¿Dónde está Noé…? DVD-RIP LATINO

¡Upsss! ¿Dónde está Noé…?, Es el fin del mundo . Un diluvio llega. Por suerte para Dave y su hijo Finny, un par de torpes Nestrians, se ha construido un Arca para salvar a todos los animales. Pero resulta que no se admiten Nestrians. Furtivamente a bordo con la ayuda involuntaria de Hazel y su hija Leah , dos Grymps , creen que están a salvo. Finny y Leah tienen que intentar sobrevivir a la inundación y a los depredadores hambrientos y tratar de llegar a la cima de una montaña , mientras que Dave y Hazel deben dejar de lado sus diferencias.

Format : Matroska
Format version : Version 4 / Version 2
File size : 697 MiB
Duration : 1 h 26 min
Overall bit rate : 1 130 kb/s
Movie name : WWW.CINELATINOS.COM
Encoded date : UTC 2017-02-09 00:36:30
Writing application : mkvmerge v8.3.0 (‘Over the Horizon’) 64bit
Writing library : libebml v1.3.1 + libmatroska v1.4.2

Video
ID : 1
Format : MPEG-4 Visual
Format profile : Advanced Simple@L5
Format settings, BVOP : 2
Format settings, QPel : Yes
Format settings, GMC : No warppoints
Format settings, Matrix : Default (H.263)
Codec ID : V_MS/VFW/FOURCC / XVID
Codec ID/Hint : XviD
Duration : 1 h 26 min
Bit rate : 1 000 kb/s
Width : 640 pixels
Height : 352 pixels
Display aspect ratio : 16:9
Frame rate mode : Constant
Frame rate : 23.976 (24000/1001) FPS
Color space : YUV
Chroma subsampling : 4:2:0
Bit depth : 8 bits
Scan type : Progressive
Compression mode : Lossy
Bits/(Pixel*Frame) : 0.185
Stream size : 617 MiB (89%)
Title : ¡Upsss! ¿Dónde está Noé…?
Writing library : XviD 1.2.1 (UTC 2008-12-04)
Default : Yes
Forced : No

Audio
ID : 2
Format : MPEG Audio
Format version : Version 1
Format profile : Layer 3
Mode : Joint stereo
Mode extension : MS Stereo
Codec ID : A_MPEG/L3
Codec ID/Hint : MP3
Duration : 1 h 26 min
Bit rate mode : Constant
Bit rate : 128 kb/s
Channel(s) : 2 channels
Sampling rate : 48.0 kHz
Frame rate : 41.667 FPS (1152 spf)
Compression mode : Lossy
Stream size : 79.0 MiB (11%)
Writing library : LAME3.99r
Encoding settings : -m j -V 4 -q 2 -lowpass 17 -b 128
Default : Yes
Forced : No

VER ENLACES

CONTRASEÑA: www.cinelatinos.com

Password RAR para Descomprimir: www.cinelatinos.com

¡Upsss! ¿Dónde está Noé…? DVD-RIP LATINO
¡Upsss! ¿Dónde está Noé…? DVD-RIP LATINO
¡Upsss! ¿Dónde está Noé…? DVD-RIP LATINO
¡Upsss! ¿Dónde está Noé…? DVD-RIP LATINO
¡Upsss! ¿Dónde está Noé…? DVD-RIP LATINO
No links available
No downloads available

Traduce la web a tu idioma

AfrikaansAlbanianArabicArmenianAzerbaijaniBasqueBelarusianBulgarianCatalanChinese (Simplified)Chinese (Traditional)CroatianCzechDanishDutchEnglishEstonianFilipinoFinnishFrenchGalicianGeorgianGermanGreekHaitian CreoleHebrewHindiHungarianIcelandicIndonesianIrishItalianJapaneseKoreanLatvianLithuanianMacedonianMalayMalteseNorwegianPersianPolishPortugueseRomanianRussianSerbianSlovakSlovenianSpanishSwahiliSwedishThaiTurkishUkrainianUrduVietnameseWelshYiddish

Contador


contador de visitas para web

Películas relacionadas