Cinelatinos – Ver o Descargar Películas Gratis
Full HD1080p Transporter Legacy FULL HD LATINO
Reportar error

Transporter Legacy FULL HD LATINO

The Transporter Refueled    

PG-13 96 min AcciónActualizadasCrimenSuspense

5.0
IMDB: 5.0/10 14,725 votos

, , ,

N/A

France, China, Belgium

178

Reportar error

Transporter Legacy, En los bajos fondos de Francia, Frank Martin (Ed Skrein) es conocido como «Transporter», el mejor conductor y mercenario que se puede comprar con dinero. Frank se rige por tres simples reglas: sin nombres, sin preguntas y sin renegociaciones, y transporta cualquier cosa por el precio adecuado. Hasta que conoce a la misteriosa mujer fatal llamada Anna (Loan Chabanol), que lidera un grupo de mortíferos asaltantes y que no se detendrá ante nada con tal de acabar con una despiadada banda rusa de traficantes humanos. Anna sabe que Frank es el mejor en su trabajo y, para asegurarse su colaboración, mantiene rehén a su padre (Ray Stevenson). Ahora, padre e hijo se verán obligados a trabajar con Anna para llevar a esta peligrosa banda ante la justicia.

Format : Matroska
Format version : Version 4 / Version 2
File size : 2.98 GiB
Duration : 1 h 35 min
Overall bit rate : 4 455 kb/s
Movie name : WWW.CINELATINOS.COM
Encoded date : UTC 2017-02-08 00:59:22
Writing application : mkvmerge v8.3.0 (‘Over the Horizon’) 64bit
Writing library : libebml v1.3.1 + libmatroska v1.4.2

Video
ID : 1
Format : AVC
Format/Info : Advanced Video Codec
Format profile : High@L4.1
Format settings, CABAC : Yes
Format settings, ReFrames : 2 frames
Codec ID : V_MPEG4/ISO/AVC
Duration : 1 h 35 min
Bit rate : 4 200 kb/s
Width : 1 920 pixels
Height : 1 080 pixels
Display aspect ratio : 16:9
Frame rate mode : Constant
Frame rate : 23.976 (24000/1001) FPS
Color space : YUV
Chroma subsampling : 4:2:0
Bit depth : 8 bits
Scan type : Progressive
Bits/(Pixel*Frame) : 0.084
Stream size : 2.81 GiB (94%)
Title : CINELATINOS.COM
Writing library : x264 core 142
Default : Yes
Forced : No
Color range : Limited
Color primaries : BT.709
Transfer characteristics : BT.709
Matrix coefficients : BT.709

Audio
ID : 2
Format : AC-3
Format/Info : Audio Coding 3
Mode extension : CM (complete main)
Format settings, Endianness : Big
Codec ID : A_AC3
Duration : 1 h 35 min
Bit rate mode : Constant
Bit rate : 256 kb/s
Channel(s) : 2 channels
Channel positions : Front: L R
Sampling rate : 48.0 kHz
Frame rate : 31.250 FPS (1536 spf)
Bit depth : 16 bits
Compression mode : Lossy
Stream size : 176 MiB (6%)
Title : Latino
Language : Spanish
Default : Yes
Forced : No

VER ENLACES

Password RAR para Descomprimir: www.cinelatinos.com

Transporter Legacy FULL HD LATINO
Transporter Legacy FULL HD LATINO
Transporter Legacy FULL HD LATINO
Transporter Legacy FULL HD LATINO
Transporter Legacy FULL HD LATINO
  • Descargar Servidor Audio / Idioma Calidad
  • Ver en linea Servidor Audio / Idioma Calidad

Traduce la web a tu idioma

AfrikaansAlbanianArabicArmenianAzerbaijaniBasqueBelarusianBulgarianCatalanChinese (Simplified)Chinese (Traditional)CroatianCzechDanishDutchEnglishEstonianFilipinoFinnishFrenchGalicianGeorgianGermanGreekHaitian CreoleHebrewHindiHungarianIcelandicIndonesianIrishItalianJapaneseKoreanLatvianLithuanianMacedonianMalayMalteseNorwegianPersianPolishPortugueseRomanianRussianSerbianSlovakSlovenianSpanishSwahiliSwedishThaiTurkishUkrainianUrduVietnameseWelshYiddish

Contador


contador de visitas para web

Películas relacionadas