Cinelatinos – Ver o Descargar Películas Gratis
HD Latino Resident Evil 4: Ultratumba (2010) HD-Latino
Reportar error

Resident Evil 4: Ultratumba (2010) HD-Latino

AcciónAventuraCiencia ficciónEstrenosTerror

IMDB: /10 votos

Reportar error

Resident Evil 4: Ultratumba (2010) HD-Latino

En un mundo asolado por un virus infeccioso que convierte a sus víctimas en muertos vivientes, Alice continúa buscando supervivientes para ponerlos a salvo. Su batalla a muerte con la Corporación Umbrella llega a alturas insospechadas, pero Alice, inesperadamente, recibe ayuda de una vieja amiga. Nuevas pistas, con la promesa de un paraíso a salvo de muertos vivientes, los conduce hasta Los Ángeles, pero cuando llegan, la ciudad está infectada con miles de muertos vivientes. Alice y sus compañeros están a punto de caer en una trampa mortal.

Resident Evil 4: Ultratumba (2010) HD-Latino

Format : Matroska
Format version : Version 4 / Version 2
File size : 3.62 GiB
Duration : 1 h 36 min
Overall bit rate : 5 350 kb/s
Movie name : www.cinelatinos.com
Encoded date : UTC 2017-02-05 02:15:53
Writing application : mkvmerge v8.3.0 (‘Over the Horizon’) 64bit
Writing library : libebml v1.3.1 + libmatroska v1.4.2
Attachments : logo3.png

Video
ID : 1
Format : AVC
Format/Info : Advanced Video Codec
Format profile : High@L4.1
Format settings, CABAC : Yes
Format settings, ReFrames : 5 frames
Codec ID : V_MPEG4/ISO/AVC
Duration : 1 h 36 min
Bit rate : 4 900 kb/s
Width : 1 920 pixels
Height : 800 pixels
Display aspect ratio : 2.40:1
Frame rate mode : Constant
Frame rate : 23.976 (24000/1001) FPS
Color space : YUV
Chroma subsampling : 4:2:0
Bit depth : 8 bits
Scan type : Progressive
Bits/(Pixel*Frame) : 0.133
Stream size : 3.32 GiB (92%)
Title : Cinelatinos.com
Writing library : x264 core 142 r2479 dd79a61
Encoding settings : cabac=1 / ref=5 / deblock=1:-1:-1 / analyse=0x3:0x133 / me=umh / subme=10 / psy=1 / psy_rd=1.00:0.15 / mixed_ref=1 / me_range=24 / chroma_me=1 / trellis=2 / 8x8dct=1 / cqm=0 / deadzone=21,11 / fast_pskip=1 / chroma_qp_offset=-3 / threads=12 / lookahead_threads=2 / sliced_threads=0 / nr=0 / decimate=1 / interlaced=0 / bluray_compat=0 / constrained_intra=0 / bframes=8 / b_pyramid=2 / b_adapt=2 / b_bias=0 / direct=3 / weightb=1 / open_gop=0 / weightp=2 / keyint=240 / keyint_min=24 / scenecut=40 / intra_refresh=0 / rc_lookahead=60 / rc=2pass / mbtree=1 / bitrate=4900 / ratetol=1.0 / qcomp=0.60 / qpmin=0 / qpmax=69 / qpstep=4 / cplxblur=20.0 / qblur=0.5 / vbv_maxrate=62500 / vbv_bufsize=78125 / nal_hrd=none / filler=0 / ip_ratio=1.40 / aq=1:1.00
Default : Yes
Forced : No
Color range : Limited
Color primaries : BT.709
Transfer characteristics : BT.709
Matrix coefficients : BT.709

Audio
ID : 2
Format : AC-3
Format/Info : Audio Coding 3
Mode extension : CM (complete main)
Format settings, Endianness : Big
Codec ID : A_AC3
Duration : 1 h 36 min
Bit rate mode : Constant
Bit rate : 448 kb/s
Channel(s) : 6 channels
Channel positions : Front: L C R, Side: L R, LFE
Sampling rate : 48.0 kHz
Frame rate : 31.250 FPS (1536 spf)
Bit depth : 16 bits
Compression mode : Lossy
Delay relative to video : -83 ms
Stream size : 310 MiB (8%)
Title : Latino
Language : Spanish
Default : Yes
Forced : Yes

Descargar Resident Evil 4: Ultratumba (2010) HD-Latino

Password RAR para Descomprimir: www.cinelatinos.com

Resident Evil 4: Ultratumba (2010) HD-Latino
Resident Evil 4: Ultratumba (2010) HD-Latino
Resident Evil 4: Ultratumba (2010) HD-Latino
Resident Evil 4: Ultratumba (2010) HD-Latino
Resident Evil 4: Ultratumba (2010) HD-Latino
Resident Evil 4: Ultratumba (2010) HD-Latino
Resident Evil 4: Ultratumba (2010) HD-Latino
Resident Evil 4: Ultratumba (2010) HD-Latino
Resident Evil 4: Ultratumba (2010) HD-Latino
Resident Evil 4: Ultratumba (2010) HD-Latino
Resident Evil 4: Ultratumba (2010) HD-Latino
Resident Evil 4: Ultratumba (2010) HD-Latino
Resident Evil 4: Ultratumba (2010) HD-Latino
Resident Evil 4: Ultratumba (2010) HD-Latino
Resident Evil 4: Ultratumba (2010) HD-Latino
Resident Evil 4: Ultratumba (2010) HD-Latino
Resident Evil 4: Ultratumba (2010) HD-Latino
  • Descargar Servidor Audio / Idioma Calidad
No downloads available

Traduce la web a tu idioma

AfrikaansAlbanianArabicArmenianAzerbaijaniBasqueBelarusianBulgarianCatalanChinese (Simplified)Chinese (Traditional)CroatianCzechDanishDutchEnglishEstonianFilipinoFinnishFrenchGalicianGeorgianGermanGreekHaitian CreoleHebrewHindiHungarianIcelandicIndonesianIrishItalianJapaneseKoreanLatvianLithuanianMacedonianMalayMalteseNorwegianPersianPolishPortugueseRomanianRussianSerbianSlovakSlovenianSpanishSwahiliSwedishThaiTurkishUkrainianUrduVietnameseWelshYiddish

Contador


contador de visitas para web

Películas relacionadas