Powered by Jasper Roberts Consulting - Widget
VER Ó DESCARGAR Rebeldes con Causa (2007) HD LATINO GRATIS | Cinelatinos - Ver Online o Descargar Peliculas Gratis Español Latino
Cinelatinos – Ver Online o Descargar Peliculas Gratis Español Latino
    
HD Latino Rebeldes con Causa (2007) HD LATINO
Reportar error

Rebeldes con Causa (2007) HD LATINO

Wild Hogs    

PG-13 100 min AcciónActualizadasAventuraComedia

5.9
IMDB: 5.9/10 96,187 votos

, , ,

3 nominations.

USA

176

Reportar error

REBELDES CON CAUSA

Rebeldes con Causa (2007) HD LATINO

Rebeldes con Causa, Doug Madsen (Tim Allen), Woody Stevens (John Travolta), Bobby Davis (Martin Lawrence) y Dudley Frank (William H. Macy) son cuatro hombres en la mediana edad que viven en los suburbios de Cincinnati quienes se encuentran frustrados con sus vidas diarias. Woody es un antiguo rico hombre de negocios quien se encuentra solo y en bancarrota.

MEDIA INFO

Format : Matroska
Format version : Version 4 / Version 2
File size : 2.47 GiB
Duration : 1 h 39 min
Overall bit rate : 3 544 kb/s
Movie name : Rebeldes con Causa (2007) HD LATINO
Encoded date : UTC 2017-02-08 03:55:19
Writing application : mkvmerge v8.3.0 (‘Over the Horizon’) 64bit
Writing library : libebml v1.3.1 + libmatroska v1.4.2

Video
ID : 1
Format : AVC
Format/Info : Advanced Video Codec
Format profile : High@L4
Format settings, CABAC : Yes
Format settings, ReFrames : 1 frame
Codec ID : V_MPEG4/ISO/AVC
Duration : 1 h 39 min
Bit rate : 3 349 kb/s
Width : 1 920 pixels
Height : 816 pixels
Display aspect ratio : 2.35:1
Frame rate mode : Constant
Frame rate : 23.976 (24000/1001) FPS
Color space : YUV
Chroma subsampling : 4:2:0
Bit depth : 8 bits
Scan type : Progressive
Bits/(Pixel*Frame) : 0.089
Stream size : 2.33 GiB (95%)
Title : CINELATINOS.COM
Default : Yes
Forced : No

Audio
ID : 2
Format : AAC
Format/Info : Advanced Audio Codec
Format profile : LC
Codec ID : A_AAC
Duration : 1 h 39 min
Bit rate : 192 kb/s
Channel(s) : 2 channels
Channel positions : Front: L R
Sampling rate : 44.1 kHz
Frame rate : 43.066 FPS (1024 spf)
Compression mode : Lossy
Stream size : 137 MiB (5%)
Language : Spanish
Default : Yes
Forced : No

VER ENLACES DE DESCARGA

MEGA

CONTASEÑA: www.cinelatinos.com

Password RAR para Descomprimir: www.cinelatinos.com

Rebeldes con Causa (2007) HD LATINO
Rebeldes con Causa (2007) HD LATINO
Rebeldes con Causa (2007) HD LATINO
Rebeldes con Causa (2007) HD LATINO
  • Descargar Servidor Audio / Idioma Calidad
No downloads available

Traduce la web a tu idioma

AfrikaansAlbanianArabicArmenianAzerbaijaniBasqueBelarusianBulgarianCatalanChinese (Simplified)Chinese (Traditional)CroatianCzechDanishDutchEnglishEstonianFilipinoFinnishFrenchGalicianGeorgianGermanGreekHaitian CreoleHebrewHindiHungarianIcelandicIndonesianIrishItalianJapaneseKoreanLatvianLithuanianMacedonianMalayMalteseNorwegianPersianPolishPortugueseRomanianRussianSerbianSlovakSlovenianSpanishSwahiliSwedishThaiTurkishUkrainianUrduVietnameseWelshYiddish

Videojuegos PC a Bajos Precios

Contador


contador de visitas para web

Películas relacionadas