Cinelatinos – Ver o Descargar Películas Gratis
FULL HD LATINO Pisando fuerte FULL HD LATINO
Reportar error

Pisando fuerte FULL HD LATINO

Walking Tall    

PG-13 86 min AcciónAventuraDramaSuspense

6.2
IMDB: 6.2/10 54,867 votos

, , ,

2 nominations.

USA

Reportar error

Pisando fuerte FULL HD LATINO

Chris Vaughn (The Rock) es un soldado retirado de las fuerzas especiales del ejército americano que vuelve a su hogar natal para volver a empezar de nuevo. Pero mientras él estuvo fuera, su ciudad se convirtió en un sitio peligroso y con mucha criminalidad. Uno de los culpables de ese cambio es el acaudalado Jay Hamilton (Neal McDonough), su rival en el instituto. A Chris, que regresaba con la intención de recuperar sus viejas relaciones y construir una nueva vida, lo que se encuentra no es lo que recordaba y luchará, bate en mano, para poner las cosas en su sitio. (FILMAFFINITY)

Format : Matroska
Format version : Version 4 / Version 2
File size : 1.96 GiB
Duration : 1 h 26 min
Overall bit rate : 3 257 kb/s
Encoded date : UTC 2017-02-21 00:59:30
Writing application : mkvmerge v9.8.0 (‘Kuglblids’) 32bit
Writing library : libebml v1.3.4 + libmatroska v1.4.5

Video
ID : 1
Format : AVC
Format/Info : Advanced Video Codec
Format profile : High@L4.1
Format settings, CABAC : Yes
Format settings, ReFrames : 2 frames
Codec ID : V_MPEG4/ISO/AVC
Duration : 1 h 26 min
Bit rate : 3 000 kb/s
Width : 1 920 pixels
Height : 1 080 pixels
Display aspect ratio : 16:9
Frame rate mode : Constant
Frame rate : 23.976 (24000/1001) FPS
Color space : YUV
Chroma subsampling : 4:2:0
Bit depth : 8 bits
Scan type : Progressive
Bits/(Pixel*Frame) : 0.060
Stream size : 1.81 GiB (92%)
Writing library : x264 core 142
Default : Yes
Forced : No
Color range : Limited
Color primaries : BT.709
Transfer characteristics : BT.709
Matrix coefficients : BT.709

Audio
ID : 2
Format : AC-3
Format/Info : Audio Coding 3
Mode extension : CM (complete main)
Format settings, Endianness : Big
Codec ID : A_AC3
Duration : 1 h 26 min
Bit rate mode : Constant
Bit rate : 256 kb/s
Channel(s) : 2 channels
Channel positions : Front: L R
Sampling rate : 48.0 kHz
Frame rate : 31.250 FPS (1536 spf)
Bit depth : 16 bits
Compression mode : Lossy
Stream size : 158 MiB (8%)
Title : Latino
Language : Spanish
Default : Yes
Forced : No

Password RAR para Descomprimir: www.cinelatinos.com

Pisando fuerte FULL HD LATINO
Pisando fuerte FULL HD LATINO
Pisando fuerte FULL HD LATINO
Pisando fuerte FULL HD LATINO
Pisando fuerte FULL HD LATINO
Pisando fuerte FULL HD LATINO
Pisando fuerte FULL HD LATINO
Pisando fuerte FULL HD LATINO
Pisando fuerte FULL HD LATINO
No links available
No downloads available

Traduce la web a tu idioma

AfrikaansAlbanianArabicArmenianAzerbaijaniBasqueBelarusianBulgarianCatalanChinese (Simplified)Chinese (Traditional)CroatianCzechDanishDutchEnglishEstonianFilipinoFinnishFrenchGalicianGeorgianGermanGreekHaitian CreoleHebrewHindiHungarianIcelandicIndonesianIrishItalianJapaneseKoreanLatvianLithuanianMacedonianMalayMalteseNorwegianPersianPolishPortugueseRomanianRussianSerbianSlovakSlovenianSpanishSwahiliSwedishThaiTurkishUkrainianUrduVietnameseWelshYiddish

Contador


contador de visitas para web

Películas relacionadas