Cinelatinos – Ver o Descargar Películas Gratis
3D SBS LATINO Pesadillas (2015) 3D SBS LATINO
Reportar error

Pesadillas (2015) 3D SBS LATINO

AventuraComediaTerror

IMDB: /10 votos

Reportar error

Pesadillas (2015) 3D SBS LATINO

Pesadillas, El adolescente Zach Cooper se muda sin muchas ganas con su familia desde Nueva York al pequeño pueblo de Greendale. Allí encuentra un resquicio de ilusión cuando conoce a su vecina, la guapa Hannah, y hace un amigo: Champ. También se entera de que el padre de Hannah es RL Stine, autor del Bestseller de la serie “Pesadillas”. Pero Zach descubre que Stine tiene un secreto: las criaturas de sus historias son reales, y las mantiene encerradas en sus libros. Así que cuando en un descuido todos los demonios de Stine son liberados involuntariamente de sus libros, Zach, Hannah, Champ y el propio Stine, en una alocada noche llena de aventuras, tendrán que formar equipo y atrapar a todas las criaturas de la imaginación de Stine para devolverlos a los libros donde pertenecen, con el fin de salvar la ciudad.

Format : Matroska
Format version : Version 4 / Version 2
File size : 3.87 GiB
Duration : 1 h 43 min
Overall bit rate : 5 364 kb/s
Movie name : WWW.CINELATINOS.COM
Encoded date : UTC 2017-02-08 23:57:25
Writing application : mkvmerge v8.3.0 (‘Over the Horizon’) 64bit
Writing library : libebml v1.3.1 + libmatroska v1.4.2

Video
ID : 1
Format : AVC
Format/Info : Advanced Video Codec
Format profile : High@L4
Format settings, CABAC : Yes
Format settings, ReFrames : 4 frames
Codec ID : V_MPEG4/ISO/AVC
Duration : 1 h 43 min
Bit rate : 4 250 kb/s
Width : 1 920 pixels
Height : 1 080 pixels
Display aspect ratio : 16:9
Frame rate mode : Constant
Frame rate : 23.976 (24000/1001) FPS
Color space : YUV
Chroma subsampling : 4:2:0
Bit depth : 8 bits
Scan type : Progressive
Bits/(Pixel*Frame) : 0.085
Stream size : 3.06 GiB (79%)
Title : PESADILLAS 3D SBS
Writing library : x264 core 130 r2273 b3065e6
Encoding settings : cabac=1 / ref=1 / deblock=1:-1:-1 / analyse=0x3:0x113 / me=hex / subme=2 / psy=1 / psy_rd=1.00:0.15 / mixed_ref=0 / me_range=16 / chroma_me=1 / trellis=0 / 8x8dct=1 / cqm=0 / deadzone=21,11 / fast_pskip=1 / chroma_qp_offset=0 / threads=12 / lookahead_threads=4 / sliced_threads=0 / nr=0 / decimate=1 / interlaced=0 / bluray_compat=0 / constrained_intra=0 / bframes=3 / b_pyramid=2 / b_adapt=1 / b_bias=0 / direct=1 / weightb=1 / open_gop=0 / weightp=1 / keyint=240 / keyint_min=24 / scenecut=40 / intra_refresh=0 / rc_lookahead=10 / rc=2pass / mbtree=1 / bitrate=4250 / ratetol=1.0 / qcomp=0.60 / qpmin=0 / qpmax=69 / qpstep=4 / cplxblur=20.0 / qblur=0.5 / ip_ratio=1.40 / aq=1:1.00
Language : English
Default : Yes
Forced : No
Color range : Limited
Color primaries : BT.709
Transfer characteristics : BT.709
Matrix coefficients : BT.709

Audio #1
ID : 2
Format : AC-3
Format/Info : Audio Coding 3
Mode extension : CM (complete main)
Format settings, Endianness : Big
Codec ID : A_AC3
Duration : 1 h 43 min
Bit rate mode : Constant
Bit rate : 448 kb/s
Channel(s) : 6 channels
Channel positions : Front: L C R, Side: L R, LFE
Sampling rate : 48.0 kHz
Frame rate : 31.250 FPS (1536 spf)
Bit depth : 16 bits
Compression mode : Lossy
Stream size : 331 MiB (8%)
Title : Audio Latino
Language : Spanish
Default : Yes
Forced : No

Audio #2
ID : 3
Format : AC-3
Format/Info : Audio Coding 3
Mode extension : CM (complete main)
Format settings, Endianness : Big
Codec ID : A_AC3
Duration : 1 h 43 min
Bit rate mode : Constant
Bit rate : 640 kb/s
Channel(s) : 6 channels
Channel positions : Front: L C R, Side: L R, LFE
Sampling rate : 48.0 kHz
Frame rate : 31.250 FPS (1536 spf)
Bit depth : 16 bits
Compression mode : Lossy
Stream size : 473 MiB (12%)
Title : Audio Ingles
Language : English
Default : No
Forced : No

VER ENLACES

CONTASEÑA: www.cinelatinos.com

Password RAR para Descomprimir: www.cinelatinos.com

Pesadillas (2015) 3D SBS LATINO
Pesadillas (2015) 3D SBS LATINO
Pesadillas (2015) 3D SBS LATINO
Pesadillas (2015) 3D SBS LATINO
Pesadillas (2015) 3D SBS LATINO
Pesadillas (2015) 3D SBS LATINO
Pesadillas (2015) 3D SBS LATINO
Pesadillas (2015) 3D SBS LATINO
Pesadillas (2015) 3D SBS LATINO
Pesadillas (2015) 3D SBS LATINO
Pesadillas (2015) 3D SBS LATINO
Pesadillas (2015) 3D SBS LATINO
Pesadillas (2015) 3D SBS LATINO
No links available
No downloads available

Traduce la web a tu idioma

AfrikaansAlbanianArabicArmenianAzerbaijaniBasqueBelarusianBulgarianCatalanChinese (Simplified)Chinese (Traditional)CroatianCzechDanishDutchEnglishEstonianFilipinoFinnishFrenchGalicianGeorgianGermanGreekHaitian CreoleHebrewHindiHungarianIcelandicIndonesianIrishItalianJapaneseKoreanLatvianLithuanianMacedonianMalayMalteseNorwegianPersianPolishPortugueseRomanianRussianSerbianSlovakSlovenianSpanishSwahiliSwedishThaiTurkishUkrainianUrduVietnameseWelshYiddish

Contador


contador de visitas para web

Películas relacionadas