Cinelatinos – Ver o Descargar Películas Gratis
P4r4nm4l4ctgh0sdm3nsi0n

P4r4nm4l4ctgh0sdm3nsi0n
DVD-Rip Latino Paranormal Activity: The Ghost Dimension (2015) DVD-RIP | LATINO
Reportar error

Paranormal Activity: The Ghost Dimension (2015) DVD-RIP | LATINO

SuspenseTerror

IMDB: /10 votos

33

Reportar error

Paranormal Activity: The Ghost Dimension (2015) DVD-RIP | LATINO

Paranormal Activity: Dimensión fantasma, El argumento podría seguir la línea narrativa de sus predecesoras, en las que los distintos protagonistas son atormentados por extraños sucesos paranormales, que son captados y estudiados a través de cámaras que colocan en su propia casa. En esta secuela, nuevas situaciones y personajes tendrán que enfrentarse a las escalofriantes apariciones, ¿conseguirán salir ilesos de estos terribles sucesos?

Paranormal Activity: The Ghost Dimension (2015) DVD-RIP | LATINO

Format : MPEG-4
Format profile : Base Media / Version 2
Codec ID : mp42 (isom/iso2/avc1/mp41)
File size : 317 MiB
Duration : 1 h 37 min
Overall bit rate mode : Variable
Overall bit rate : 452 kb/s
Encoded date : UTC 2036-02-06 06:28:16
Tagged date : UTC 2036-02-06 06:28:16
Writing application : HandBrake 0.10.2 2015060900

Video
ID : 1
Format : AVC
Format/Info : Advanced Video Codec
Format profile : High@L4
Format settings, CABAC : Yes
Format settings, ReFrames : 4 frames
Codec ID : avc1
Codec ID/Info : Advanced Video Coding
Duration : 1 h 37 min
Bit rate : 375 kb/s
Width : 720 pixels
Height : 480 pixels
Display aspect ratio : 16:9
Original display aspect ratio : 16:9
Frame rate mode : Variable
Frame rate : 23.976 FPS
Minimum frame rate : 19.978 FPS
Maximum frame rate : 29.970 FPS
Color space : YUV
Chroma subsampling : 4:2:0
Bit depth : 8 bits
Scan type : Progressive
Bits/(Pixel*Frame) : 0.045
Stream size : 263 MiB (83%)
Encoded date : UTC 2036-02-06 06:28:16
Tagged date : UTC 2036-02-06 06:28:16
Color range : Limited
Color primaries : BT.601 NTSC
Transfer characteristics : BT.709
Matrix coefficients : BT.601

Audio
ID : 2
Format : MPEG Audio
Format version : Version 1
Format profile : Layer 3
Mode : Joint stereo
Mode extension : MS Stereo
Codec ID : 6B
Duration : 1 h 37 min
Bit rate mode : Variable
Bit rate : 70.5 kb/s
Channel(s) : 2 channels
Sampling rate : 48.0 kHz
Compression mode : Lossy
Stream size : 49.2 MiB (16%)
Title : Stereo / Stereo
Writing library : LAME3.98
Language : Spanish
Default : Yes
Alternate group : 1
Encoded date : UTC 2036-02-06 06:28:16
Tagged date : UTC 2036-02-06 06:28:16

VER ENLACES

Password RAR para Descomprimir: www.cinelatinos.com

Paranormal Activity: The Ghost Dimension (2015) DVD-RIP | LATINO
Paranormal Activity: The Ghost Dimension (2015) DVD-RIP | LATINO
Paranormal Activity: The Ghost Dimension (2015) DVD-RIP | LATINO
Paranormal Activity: The Ghost Dimension (2015) DVD-RIP | LATINO
Paranormal Activity: The Ghost Dimension (2015) DVD-RIP | LATINO
Paranormal Activity: The Ghost Dimension (2015) DVD-RIP | LATINO
No links available
No downloads available

Traduce la web a tu idioma

AfrikaansAlbanianArabicArmenianAzerbaijaniBasqueBelarusianBulgarianCatalanChinese (Simplified)Chinese (Traditional)CroatianCzechDanishDutchEnglishEstonianFilipinoFinnishFrenchGalicianGeorgianGermanGreekHaitian CreoleHebrewHindiHungarianIcelandicIndonesianIrishItalianJapaneseKoreanLatvianLithuanianMacedonianMalayMalteseNorwegianPersianPolishPortugueseRomanianRussianSerbianSlovakSlovenianSpanishSwahiliSwedishThaiTurkishUkrainianUrduVietnameseWelshYiddish

Contador


contador de visitas para web

Películas relacionadas