Cinelatinos – Ver o Descargar Películas Gratis
Full HD1080p One Piece Película 13: Gold | 2016 | Full HD
Reportar error

One Piece Película 13: Gold | 2016 | Full HD

AcciónAnimaciónAventuraComedia

IMDB: /10 votos

Reportar error

One Piece Película 13: Gold | 2016 | Full HD | Latino

Los Piratas de Sombrero de Paja viajan en esta ocasión a una lujosa ciudad-barco de 10 kilómetros de largo que ha sido reconocida como país independiente por el Gobierno Mundial. La metrópoli está considerada como la capital del entretenimiento por excelencia y recibe el nombre de Gran Tesoro. Sin embargo, está gobernada por el malvado y ambicioso Gildo Tesoro, que tiene la capacidad de transformar en oro todo lo que tenga a su alcance. Luffy y sus amigos tendrán que parar los pies a este individuo que pretende cambiar las relaciones de poder en el mundo.

One Piece Película 13: Gold | 2016 | Full HD | Latino

Format : Matroska
Format version : Version 4 / Version 2
File size : 4.97 GiB
Duration : 2 h 0 min
Overall bit rate : 5 920 kb/s
Movie name : www.cinelatinos.com
Encoded date : UTC 2017-02-05 03:45:28
Writing application : mkvmerge v8.3.0 (‘Over the Horizon’) 64bit
Writing library : libebml v1.3.1 + libmatroska v1.4.2
Attachments : logo3.png

Video
ID : 1
Format : AVC
Format/Info : Advanced Video Codec
Format profile : High@L4
Format settings, CABAC : Yes
Format settings, ReFrames : 4 frames
Codec ID : V_MPEG4/ISO/AVC
Duration : 2 h 0 min
Bit rate : 1 830 kb/s
Width : 1 920 pixels
Height : 1 080 pixels
Display aspect ratio : 16:9
Frame rate mode : Constant
Frame rate : 23.976 (24000/1001) FPS
Color space : YUV
Chroma subsampling : 4:2:0
Bit depth : 8 bits
Scan type : Progressive
Bits/(Pixel*Frame) : 0.037
Stream size : 1.54 GiB (31%)
Title : Cinelatinos.com
Default : Yes
Forced : No

Audio
ID : 2
Format : DTS
Format/Info : Digital Theater Systems
Format profile : MA / Core
Mode : 16
Format settings, Endianness : Big
Codec ID : A_DTS
Duration : 2 h 0 min
Bit rate mode : Variable / Constant
Bit rate : 4 086 kb/s / 768 kb/s
Channel(s) : 6 channels
Channel positions : Front: L C R, Side: L R, LFE
Sampling rate : 48.0 kHz
Frame rate : 93.750 FPS (512 spf)
Bit depth : 24 bits
Compression mode : Lossless / Lossy
Stream size : 3.43 GiB (69%)
Title : Japones
Language : Japanese
Default : Yes
Forced : Yes

Text
ID : 3
Format : ASS
Codec ID : S_TEXT/ASS
Codec ID/Info : Advanced Sub Station Alpha
Duration : 1 h 56 min
Bit rate : 100 b/s
Count of elements : 1764
Compression mode : Lossless
Stream size : 85.7 KiB (0%)
Title : Subtitulos Español
Language : Spanish
Default : Yes
Forced : Yes

One Piece Película 13: Gold | 2016 | Full HD | Latino

Password RAR para Descomprimir: www.cinelatinos.com

One Piece Película 13: Gold | 2016 | Full HD
One Piece Película 13: Gold | 2016 | Full HD
No downloads available

Traduce la web a tu idioma

AfrikaansAlbanianArabicArmenianAzerbaijaniBasqueBelarusianBulgarianCatalanChinese (Simplified)Chinese (Traditional)CroatianCzechDanishDutchEnglishEstonianFilipinoFinnishFrenchGalicianGeorgianGermanGreekHaitian CreoleHebrewHindiHungarianIcelandicIndonesianIrishItalianJapaneseKoreanLatvianLithuanianMacedonianMalayMalteseNorwegianPersianPolishPortugueseRomanianRussianSerbianSlovakSlovenianSpanishSwahiliSwedishThaiTurkishUkrainianUrduVietnameseWelshYiddish

Contador


contador de visitas para web

Películas relacionadas