Cinelatinos – Ver o Descargar Películas Gratis
JUSTDRK17-18pFLL (1)
Web-DL HD Justice League Dark (2017) HD | Latino-Ingles
Reportar error

Justice League Dark (2017) HD | Latino-Ingles

Justice League Dark    

R N/A AcciónAnimaciónCiencia ficciónFantasíaSuspense

N/A
IMDB: N/A/10 N/A votos

, , ,

N/A

USA

Reportar error

Justice League Dark (2017) HD | Latino-Ingles

Justice League Dark (2017) HD | Latino-Ingles, Seres con poderes sobrenaturales se unen para luchar contra los villanos sobrenaturales. Este equipo de seres sobrenaturales incluyena John Constantine, Zatanna y Jason Blood también conocido como el demonio Etrigran.

Justice League Dark (2017) HD | Latino-Ingles

Format : Matroska
Format version : Version 4 / Version 2
File size : 2.95 GiB
Duration : 1 h 15 min
Overall bit rate : 5 579 kb/s
Movie name : cinelatinos.com
Encoded date : UTC 2017-01-28 02:31:06
Writing application : mkvmerge v8.3.0 (‘Over the Horizon’) 64bit
Writing library : libebml v1.3.1 + libmatroska v1.4.2
Attachments : logo3.png

Video
ID : 1
Format : AVC
Format/Info : Advanced Video Codec
Format profile : High@L4
Format settings, CABAC : Yes
Format settings, ReFrames : 4 frames
Codec ID : V_MPEG4/ISO/AVC
Duration : 1 h 15 min
Bit rate : 4 937 kb/s
Width : 1 916 pixels
Height : 1 076 pixels
Display aspect ratio : 16:9
Frame rate mode : Constant
Frame rate : 23.976 (23976/1000) FPS
Color space : YUV
Chroma subsampling : 4:2:0
Bit depth : 8 bits
Scan type : Progressive
Bits/(Pixel*Frame) : 0.100
Stream size : 2.61 GiB (88%)
Title : Cinelatinos.com
Language : English
Default : Yes
Forced : No
Color range : Limited
Color primaries : BT.709
Transfer characteristics : BT.709
Matrix coefficients : BT.709

Audio #1
ID : 2
Format : AC-3
Format/Info : Audio Coding 3
Mode extension : CM (complete main)
Format settings, Endianness : Big
Codec ID : A_AC3
Duration : 1 h 15 min
Bit rate mode : Constant
Bit rate : 256 kb/s
Channel(s) : 2 channels
Channel positions : Front: L R
Sampling rate : 48.0 kHz
Frame rate : 31.250 FPS (1536 spf)
Bit depth : 16 bits
Compression mode : Lossy
Stream size : 139 MiB (5%)
Title : Audio Latino
Language : Latin
Default : Yes
Forced : Yes

Audio #2
ID : 3
Format : AC-3
Format/Info : Audio Coding 3
Mode extension : CM (complete main)
Format settings, Endianness : Big
Codec ID : A_AC3
Duration : 1 h 15 min
Bit rate mode : Constant
Bit rate : 384 kb/s
Channel(s) : 6 channels
Channel positions : Front: L C R, Side: L R, LFE
Sampling rate : 48.0 kHz
Frame rate : 31.250 FPS (1536 spf)
Bit depth : 16 bits
Compression mode : Lossy
Stream size : 208 MiB (7%)
Title : Audio Inglés
Language : English
Default : No
Forced : No

 

Password RAR para Descomprimir: www.cinelatinos.com

Justice League Dark (2017) HD | Latino-Ingles
Justice League Dark (2017) HD | Latino-Ingles
Justice League Dark (2017) HD | Latino-Ingles
Justice League Dark (2017) HD | Latino-Ingles
Justice League Dark (2017) HD | Latino-Ingles
No downloads available

Traduce la web a tu idioma

AfrikaansAlbanianArabicArmenianAzerbaijaniBasqueBelarusianBulgarianCatalanChinese (Simplified)Chinese (Traditional)CroatianCzechDanishDutchEnglishEstonianFilipinoFinnishFrenchGalicianGeorgianGermanGreekHaitian CreoleHebrewHindiHungarianIcelandicIndonesianIrishItalianJapaneseKoreanLatvianLithuanianMacedonianMalayMalteseNorwegianPersianPolishPortugueseRomanianRussianSerbianSlovakSlovenianSpanishSwahiliSwedishThaiTurkishUkrainianUrduVietnameseWelshYiddish

Contador


contador de visitas para web

Películas relacionadas