Cinelatinos – Ver o Descargar Películas Gratis
3D Full HD1080p Latino I, Robot (2004) 3D 1080p | Latino
Reportar error

I, Robot (2004) 3D 1080p | Latino

I, Robot    

PG-13 115 min AcciónCiencia ficción

7.1
IMDB: 7.1/10 398,984 votos

, , ,

Nominated for 1 Oscar. Another 1 win & 13 nominations.

USA, Germany

Reportar error

I, Robot (2004) 3D 1080p | Latino

I, Robot (2004) 3D 1080p | Latino, En el año 2035, los robots son unos dispositivos que usamos todos los días y en quienes confiamos, excepto un detective paranoico (Smith), investigando lo que solo él cree que es un crimen perpetrado por un robot. El caso lo lleva a descubrir algo aún peor que amenaza la raza humana. Will Smith protagoniza este thriller de acción inspirado en la clásica colección de relatos cortos de Isaac Asimov, y llevado al cine por el dinámico y visionario director Alex Proyas (Dark City, El cuervo). En esta película se emplean las más modernas y espectaculares técnicas de efectos visuales para dar vida al mundo de los robots.

I, Robot (2004) 3D 1080p | Latino

Format : Matroska
Format version : Version 4 / Version 2
File size : 2.61 GiB
Duration : 1 h 54 min
Overall bit rate : 3 257 kb/s
Movie name : I Robot 3D Latino 5.1 By Meib
Encoded date : UTC 2013-05-02 17:20:19
Writing application : mkvmerge v6.1.0 (‘Old Devil’) built on Mar 2 2013 14:32:37
Writing library : libebml v1.3.0 + libmatroska v1.4.0

Video
ID : 1
Format : AVC
Format/Info : Advanced Video Codec
Format profile : High@L4.1
Format settings, CABAC : Yes
Format settings, ReFrames : 4 frames
Codec ID : V_MPEG4/ISO/AVC
Duration : 1 h 54 min
Bit rate : 3 000 kb/s
Width : 1 920 pixels
Height : 1 080 pixels
Display aspect ratio : 16:9
Frame rate mode : Constant
Frame rate : 23.976 (24000/1001) FPS
Color space : YUV
Chroma subsampling : 4:2:0
Bit depth : 8 bits
Scan type : Progressive
Bits/(Pixel*Frame) : 0.060
Stream size : 2.35 GiB (90%)
Writing library : x264 core 130 r2273 b3065e6
Encoding settings : cabac=1 / ref=4 / deblock=1:-1:-1 / analyse=0x3:0x113 / me=umh / subme=7 / psy=1 / psy_rd=1.00:0.00 / mixed_ref=1 / me_range=16 / chroma_me=1 / trellis=2 / 8x8dct=1 / cqm=0 / deadzone=21,11 / fast_pskip=1 / chroma_qp_offset=-2 / threads=6 / lookahead_threads=1 / sliced_threads=0 / nr=0 / decimate=1 / interlaced=0 / bluray_compat=0 / constrained_intra=0 / bframes=3 / b_pyramid=2 / b_adapt=2 / b_bias=0 / direct=3 / weightb=1 / open_gop=0 / weightp=2 / keyint=240 / keyint_min=23 / scenecut=40 / intra_refresh=0 / rc_lookahead=40 / rc=2pass / mbtree=1 / bitrate=3000 / ratetol=1.0 / qcomp=0.60 / qpmin=10 / qpmax=51 / qpstep=4 / cplxblur=20.0 / qblur=0.5 / vbv_maxrate=50000 / vbv_bufsize=50000 / nal_hrd=none / ip_ratio=1.40 / aq=1:1.00
Default : Yes
Forced : No

Audio
ID : 2
Format : AC-3
Format/Info : Audio Coding 3
Mode extension : CM (complete main)
Format settings, Endianness : Big
Codec ID : A_AC3
Duration : 1 h 54 min
Bit rate mode : Constant
Bit rate : 256 kb/s
Channel(s) : 6 channels
Channel positions : Front: L C R, Side: L R, LFE
Sampling rate : 48.0 kHz
Frame rate : 31.250 FPS (1536 spf)
Bit depth : 16 bits
Compression mode : Lossy
Stream size : 210 MiB (8%)
Default : Yes
Forced : No

Password RAR para Descomprimir: www.cinelatinos.com

I, Robot (2004) 3D 1080p | Latino
I, Robot (2004) 3D 1080p | Latino
I, Robot (2004) 3D 1080p | Latino
I, Robot (2004) 3D 1080p | Latino
I, Robot (2004) 3D 1080p | Latino
I, Robot (2004) 3D 1080p | Latino
I, Robot (2004) 3D 1080p | Latino
I, Robot (2004) 3D 1080p | Latino
I, Robot (2004) 3D 1080p | Latino
I, Robot (2004) 3D 1080p | Latino
I, Robot (2004) 3D 1080p | Latino
I, Robot (2004) 3D 1080p | Latino
I, Robot (2004) 3D 1080p | Latino
I, Robot (2004) 3D 1080p | Latino
I, Robot (2004) 3D 1080p | Latino
No downloads available

Traduce la web a tu idioma

AfrikaansAlbanianArabicArmenianAzerbaijaniBasqueBelarusianBulgarianCatalanChinese (Simplified)Chinese (Traditional)CroatianCzechDanishDutchEnglishEstonianFilipinoFinnishFrenchGalicianGeorgianGermanGreekHaitian CreoleHebrewHindiHungarianIcelandicIndonesianIrishItalianJapaneseKoreanLatvianLithuanianMacedonianMalayMalteseNorwegianPersianPolishPortugueseRomanianRussianSerbianSlovakSlovenianSpanishSwahiliSwedishThaiTurkishUkrainianUrduVietnameseWelshYiddish

Contador


contador de visitas para web

Películas relacionadas