Cinelatinos – Ver o Descargar Películas Gratis
Full HD1080p Halo: The Fall of Reach FULL HD Latino
Reportar error

Halo: The Fall of Reach FULL HD Latino

Halo: The Fall of Reach    

N/A N/A AcciónActualizadasAnimaciónCiencia ficción

N/A
IMDB: N/A/10 N/A votos

N/A

USA

137

Reportar error

Halo

Halo: The Fall of Reach, Adaptación animada de “La caída de Reach”, la aclamada novela de Eric Nylund basada en el universo de la saga de videojuegos Halo. Con una hora de duración en total, se estrenará junto a las versiones coleccionista de Halo 5.

Format : Matroska
Format version : Version 4 / Version 2
File size : 2.52 GiB
Duration : 1 h 4 min
Overall bit rate : 5 600 kb/s
Movie name : Halo: The Fall of Reach Br-rip Latino
Encoded date : UTC 2017-02-08 12:51:42
Writing application : mkvmerge v8.3.0 (‘Over the Horizon’) 64bit
Writing library : libebml v1.3.1 + libmatroska v1.4.2

Video
ID : 1
Format : AVC
Format/Info : Advanced Video Codec
Format profile : High@L4.1
Format settings, CABAC : Yes
Format settings, ReFrames : 4 frames
Codec ID : V_MPEG4/ISO/AVC
Duration : 1 h 4 min
Bit rate : 5 150 kb/s
Width : 1 920 pixels
Height : 1 080 pixels
Display aspect ratio : 16:9
Frame rate mode : Constant
Frame rate : 23.976 (24000/1001) FPS
Color space : YUV
Chroma subsampling : 4:2:0
Bit depth : 8 bits
Scan type : Progressive
Bits/(Pixel*Frame) : 0.104
Stream size : 2.32 GiB (92%)
Title : Halo: The Fall of Reach
Writing library : x264 core 148 r2579 73ae2d1
Encoding settings : cabac=1 / ref=3 / deblock=1:-1:-1 / analyse=0x3:0x113 / me=hex / subme=7 / psy=1 / psy_rd=1.00:0.15 / mixed_ref=1 / me_range=16 / chroma_me=1 / trellis=1 / 8x8dct=1 / cqm=0 / deadzone=21,11 / fast_pskip=1 / chroma_qp_offset=-3 / threads=12 / lookahead_threads=2 / sliced_threads=0 / nr=0 / decimate=1 / interlaced=0 / bluray_compat=0 / constrained_intra=0 / bframes=3 / b_pyramid=2 / b_adapt=1 / b_bias=0 / direct=1 / weightb=1 / open_gop=0 / weightp=2 / keyint=240 / keyint_min=23 / scenecut=40 / intra_refresh=0 / rc_lookahead=40 / rc=2pass / mbtree=1 / bitrate=5150 / ratetol=1.0 / qcomp=0.60 / qpmin=0 / qpmax=69 / qpstep=4 / cplxblur=20.0 / qblur=0.5 / vbv_maxrate=62500 / vbv_bufsize=78125 / nal_hrd=none / filler=0 / ip_ratio=1.40 / aq=1:1.00
Language : English
Default : Yes
Forced : No

Audio
ID : 2
Format : AC-3
Format/Info : Audio Coding 3
Mode extension : CM (complete main)
Format settings, Endianness : Big
Codec ID : A_AC3
Duration : 1 h 4 min
Bit rate mode : Constant
Bit rate : 448 kb/s
Channel(s) : 6 channels
Channel positions : Front: L C R, Side: L R, LFE
Sampling rate : 48.0 kHz
Frame rate : 31.250 FPS (1536 spf)
Bit depth : 16 bits
Compression mode : Lossy
Stream size : 207 MiB (8%)
Title : Español Latino
Language : Spanish
Default : Yes
Forced : No

VER ENLACES

CONTRASEÑA: www.cinelatinos.com

Password RAR para Descomprimir: www.cinelatinos.com

Halo: The Fall of Reach FULL HD Latino
Halo: The Fall of Reach FULL HD Latino
Halo: The Fall of Reach FULL HD Latino
Halo: The Fall of Reach FULL HD Latino
  • Descargar Servidor Audio / Idioma Calidad
No downloads available

Traduce la web a tu idioma

AfrikaansAlbanianArabicArmenianAzerbaijaniBasqueBelarusianBulgarianCatalanChinese (Simplified)Chinese (Traditional)CroatianCzechDanishDutchEnglishEstonianFilipinoFinnishFrenchGalicianGeorgianGermanGreekHaitian CreoleHebrewHindiHungarianIcelandicIndonesianIrishItalianJapaneseKoreanLatvianLithuanianMacedonianMalayMalteseNorwegianPersianPolishPortugueseRomanianRussianSerbianSlovakSlovenianSpanishSwahiliSwedishThaiTurkishUkrainianUrduVietnameseWelshYiddish

Contador


contador de visitas para web

Películas relacionadas