Cinelatinos – Ver o Descargar Películas Gratis
HD Latino Hacia rutas salvajes HD LATINO
Reportar error

Hacia rutas salvajes HD LATINO

Into the Wild    

R 148 min AventuraDrama

8.2
IMDB: 8.2/10 448,926 votos

, , ,

Nominated for 2 Oscars. Another 23 wins & 99 nominations.

USA

Reportar error

Hacia rutas salvajes

Hacia rutas salvajes, Al graduarse en la universidad, Christopher McCandless (EMILE HIRSCH), un joven de 22 años al que todos auguran un brillante futuro, decide dejar atrás su cómoda vida en busca de aventuras. El periplo del joven trotamundos le convirtió en un símbolo para muchas personas. ¿Fue Christopher McCandless un heroico aventurero o un idealista ingenuo, un Thoreau rebelde de los noventa u otro americano perdido, un temerario o una trágica figura que vivió en el precario equilibrio existente entre el hombre y la naturaleza?

Format : Matroska
Format version : Version 4 / Version 2
File size : 3.37 GiB
Duration : 2 h 28 min
Overall bit rate : 3 257 kb/s
Encoded date : UTC 2017-02-20 12:15:43
Writing application : mkvmerge v9.8.0 (‘Kuglblids’) 32bit
Writing library : libebml v1.3.4 + libmatroska v1.4.5

Video
ID : 1
Format : AVC
Format/Info : Advanced Video Codec
Format profile : Main@L4
Format settings, CABAC : Yes
Format settings, ReFrames : 4 frames
Codec ID : V_MPEG4/ISO/AVC
Duration : 2 h 28 min
Bit rate : 3 000 kb/s
Width : 1 916 pixels
Height : 800 pixels
Display aspect ratio : 2.40:1
Frame rate mode : Constant
Frame rate : 23.976 (24000/1001) FPS
Color space : YUV
Chroma subsampling : 4:2:0
Bit depth : 8 bits
Scan type : Progressive
Bits/(Pixel*Frame) : 0.082
Stream size : 3.11 GiB (92%)
Writing library : x264 core 148 r2708 86b7198
Default : Yes
Forced : No
Color range : Limited
Color primaries : BT.709
Transfer characteristics : BT.709
Matrix coefficients : BT.709

Audio
ID : 2
Format : AC-3
Format/Info : Audio Coding 3
Mode extension : CM (complete main)
Format settings, Endianness : Big
Codec ID : A_AC3
Duration : 2 h 28 min
Bit rate mode : Constant
Bit rate : 256 kb/s
Channel(s) : 6 channels
Channel positions : Front: L C R, Side: L R, LFE
Sampling rate : 48.0 kHz
Frame rate : 31.250 FPS (1536 spf)
Bit depth : 16 bits
Compression mode : Lossy
Delay relative to video : -5 ms
Stream size : 272 MiB (8%)
Title : Latino
Language : Spanish
Default : Yes
Forced : No

Password RAR para Descomprimir: www.cinelatinos.com

Hacia rutas salvajes HD LATINO
Hacia rutas salvajes HD LATINO
Hacia rutas salvajes HD LATINO
Hacia rutas salvajes HD LATINO
Hacia rutas salvajes HD LATINO
Hacia rutas salvajes HD LATINO
Hacia rutas salvajes HD LATINO
Hacia rutas salvajes HD LATINO
Hacia rutas salvajes HD LATINO
Hacia rutas salvajes HD LATINO
Hacia rutas salvajes HD LATINO
No links available
No downloads available

Traduce la web a tu idioma

AfrikaansAlbanianArabicArmenianAzerbaijaniBasqueBelarusianBulgarianCatalanChinese (Simplified)Chinese (Traditional)CroatianCzechDanishDutchEnglishEstonianFilipinoFinnishFrenchGalicianGeorgianGermanGreekHaitian CreoleHebrewHindiHungarianIcelandicIndonesianIrishItalianJapaneseKoreanLatvianLithuanianMacedonianMalayMalteseNorwegianPersianPolishPortugueseRomanianRussianSerbianSlovakSlovenianSpanishSwahiliSwedishThaiTurkishUkrainianUrduVietnameseWelshYiddish

Contador


contador de visitas para web

Películas relacionadas