Cinelatinos – Ver o Descargar Películas Gratis
FULL HD SUB Ghost in the shell: The rising FULL HD LATINO
Reportar error

Ghost in the shell: The rising FULL HD LATINO

Ghost In The Shell: The New Movie    

TV-MA 100 min AnimaciónCiencia ficción

6.8
IMDB: 6.8/10 1,758 votos

,

, , ,

3 nominations.

Japan, USA

Reportar error

GHOST IN THE SHELL FULL HD LATINO

Ghost in the shell: The rising FULL HD LATINO

Ghost in the shell: The rising FULL HD LATINO-Osamu Fujimoto es asesor e hijo del primer ministro al que han asesinado. El suceso, bautizado como el mayor acontecimiento desde la guerra, hace que Osamu colabore con la Mayor Kusanagi y la Sección 9, para descubrir la verdad detrás del asesinato.

Format : Matroska
Format version : Version 4 / Version 2
File size : 5.01 GiB
Duration : 1 h 39 min
Overall bit rate : 7 214 kb/s
Encoded date : UTC 2017-02-21 11:17:34
Writing application : mkvmerge v9.8.0 (‘Kuglblids’) 32bit
Writing library : libebml v1.3.4 + libmatroska v1.4.5

Video
ID : 1
Format : AVC
Format/Info : Advanced Video Codec
Format profile : High@L4.1
Format settings, CABAC : Yes
Format settings, ReFrames : 4 frames
Codec ID : V_MPEG4/ISO/AVC
Duration : 1 h 39 min
Bit rate : 6 574 kb/s
Width : 1 920 pixels
Height : 1 080 pixels
Display aspect ratio : 16:9
Frame rate mode : Constant
Frame rate : 23.976 (24000/1001) FPS
Color space : YUV
Chroma subsampling : 4:2:0
Bit depth : 8 bits
Scan type : Progressive
Bits/(Pixel*Frame) : 0.132
Stream size : 4.57 GiB (91%)
Writing library : x264 core 148 r2665 a01e339
Language : Japanese
Default : Yes
Forced : No

Audio
ID : 2
Format : AC-3
Format/Info : Audio Coding 3
Mode extension : CM (complete main)
Format settings, Endianness : Big
Codec ID : A_AC3
Duration : 1 h 39 min
Bit rate mode : Constant
Bit rate : 640 kb/s
Channel(s) : 6 channels
Channel positions : Front: L C R, Side: L R, LFE
Sampling rate : 48.0 kHz
Frame rate : 31.250 FPS (1536 spf)
Bit depth : 16 bits
Compression mode : Lossy
Stream size : 455 MiB (9%)
Title : Japones
Language : Japanese
Default : Yes
Forced : No

Text
ID : 3
Format : UTF-8
Codec ID : S_TEXT/UTF8
Codec ID/Info : UTF-8 Plain Text
Duration : 1 h 33 min
Bit rate : 66 b/s
Count of elements : 1009
Stream size : 45.1 KiB (0%)
Title : Subtitulos Latino
Language : Spanish
Default : Yes
Forced : Yes

Password RAR para Descomprimir: www.cinelatinos.com

Ghost in the shell: The rising FULL HD LATINO
Ghost in the shell: The rising FULL HD LATINO
Ghost in the shell: The rising FULL HD LATINO
Ghost in the shell: The rising FULL HD LATINO
Ghost in the shell: The rising FULL HD LATINO
Ghost in the shell: The rising FULL HD LATINO
Ghost in the shell: The rising FULL HD LATINO
Ghost in the shell: The rising FULL HD LATINO
Ghost in the shell: The rising FULL HD LATINO
Ghost in the shell: The rising FULL HD LATINO
Ghost in the shell: The rising FULL HD LATINO
Ghost in the shell: The rising FULL HD LATINO
Ghost in the shell: The rising FULL HD LATINO
Ghost in the shell: The rising FULL HD LATINO
Ghost in the shell: The rising FULL HD LATINO
Ghost in the shell: The rising FULL HD LATINO
Ghost in the shell: The rising FULL HD LATINO
Ghost in the shell: The rising FULL HD LATINO
Ghost in the shell: The rising FULL HD LATINO
Ghost in the shell: The rising FULL HD LATINO
No links available
No downloads available

Traduce la web a tu idioma

AfrikaansAlbanianArabicArmenianAzerbaijaniBasqueBelarusianBulgarianCatalanChinese (Simplified)Chinese (Traditional)CroatianCzechDanishDutchEnglishEstonianFilipinoFinnishFrenchGalicianGeorgianGermanGreekHaitian CreoleHebrewHindiHungarianIcelandicIndonesianIrishItalianJapaneseKoreanLatvianLithuanianMacedonianMalayMalteseNorwegianPersianPolishPortugueseRomanianRussianSerbianSlovakSlovenianSpanishSwahiliSwedishThaiTurkishUkrainianUrduVietnameseWelshYiddish

Contador


contador de visitas para web

Películas relacionadas