Cinelatinos – Ver o Descargar Películas Gratis
HD Latino Ghost in the Shell FULL HD LATINO
Reportar error

Ghost in the Shell FULL HD LATINO

Ghost in the Shell    

NOT RATED 83 min AcciónAnimaciónCiencia ficción

8.0
IMDB: 8.0/10 86,748 votos

, , ,

5 wins & 2 nominations.

Japan

Reportar error

Ghost in the Shell FULL HD LATINO

Ghost in the Shell FULL HD LATINO, En un futuro no muy lejano, un grupo de agentes especiales se disponen a encontrar a un hacker misterioso conocido como “Puppet Master”. En la búsqueda descubrirán alarmantes secretos acerca de la evolución de la inteligencia artificial. La película fue una gran inspiración para la trilogía de Matrix.

Format : Matroska
Format version : Version 4 / Version 2
File size : 4.07 GiB
Duration : 1 h 22 min
Overall bit rate : 7 037 kb/s
Encoded date : UTC 2017-02-21 02:10:11
Writing application : mkvmerge v9.8.0 (‘Kuglblids’) 32bit
Writing library : libebml v1.3.4 + libmatroska v1.4.5

Video
ID : 1
Format : AVC
Format/Info : Advanced Video Codec
Format profile : High@L4.1
Format settings, CABAC : Yes
Format settings, ReFrames : 4 frames
Codec ID : V_MPEG4/ISO/AVC
Duration : 1 h 22 min
Bit rate : 6 789 kb/s
Width : 1 920 pixels
Height : 1 040 pixels
Display aspect ratio : 1.85:1
Frame rate mode : Constant
Frame rate : 23.976 (24000/1001) FPS
Color space : YUV
Chroma subsampling : 4:2:0
Bit depth : 8 bits
Scan type : Progressive
Bits/(Pixel*Frame) : 0.142
Stream size : 3.93 GiB (96%)
Writing library : x264 core 66 r1097M e404f35
Language : Japanese
Default : Yes
Forced : No

Audio
ID : 2
Format : AC-3
Format/Info : Audio Coding 3
Format profile : Dolby Digital
Mode extension : CM (complete main)
Format settings, Endianness : Big
Codec ID : A_AC3
Duration : 1 h 22 min
Bit rate mode : Constant
Bit rate : 256 kb/s
Channel(s) : 2 channels
Channel positions : Front: L R
Sampling rate : 44.1 kHz
Frame rate : 28.711 FPS (1536 spf)
Bit depth : 16 bits
Compression mode : Lossy
Stream size : 152 MiB (4%)
Title : Latino
Language : Spanish
Default : Yes
Forced : No

 

Password RAR para Descomprimir: www.cinelatinos.com

Ghost in the Shell FULL HD LATINO
Ghost in the Shell FULL HD LATINO
Ghost in the Shell FULL HD LATINO
Ghost in the Shell FULL HD LATINO
Ghost in the Shell FULL HD LATINO
Ghost in the Shell FULL HD LATINO
Ghost in the Shell FULL HD LATINO
Ghost in the Shell FULL HD LATINO
Ghost in the Shell FULL HD LATINO
Ghost in the Shell FULL HD LATINO
Ghost in the Shell FULL HD LATINO
Ghost in the Shell FULL HD LATINO
Ghost in the Shell FULL HD LATINO
Ghost in the Shell FULL HD LATINO
Ghost in the Shell FULL HD LATINO
Ghost in the Shell FULL HD LATINO
Ghost in the Shell FULL HD LATINO
No links available
No downloads available

Traduce la web a tu idioma

AfrikaansAlbanianArabicArmenianAzerbaijaniBasqueBelarusianBulgarianCatalanChinese (Simplified)Chinese (Traditional)CroatianCzechDanishDutchEnglishEstonianFilipinoFinnishFrenchGalicianGeorgianGermanGreekHaitian CreoleHebrewHindiHungarianIcelandicIndonesianIrishItalianJapaneseKoreanLatvianLithuanianMacedonianMalayMalteseNorwegianPersianPolishPortugueseRomanianRussianSerbianSlovakSlovenianSpanishSwahiliSwedishThaiTurkishUkrainianUrduVietnameseWelshYiddish

Contador


contador de visitas para web

Películas relacionadas