Cinelatinos – Ver o Descargar Películas Gratis
HD Latino Ghost in the Shell 2: Innocence HD LATINO
Reportar error

Ghost in the Shell 2: Innocence HD LATINO

Ghost in the Shell 2: Innocence    

PG-13 100 min AnimaciónCiencia ficciónDrama

7.6
IMDB: 7.6/10 27,979 votos

, , ,

6 wins & 8 nominations.

Japan

Reportar error

Ghost in the Shell 2: Innocence HD LATINO

Ghost in the Shell 2: Innocence HD LATINO, El director pionero Mamoru Oshii continúa empujando los límites del arte y el anime con este thriller cibernético universalmente aclamado tras cyborg detective de Batou en su intento por desentrañar las razones de una revuelta del robot asesino en el año 2032. La búsqueda de un asesino que se convierte en una búsqueda alucinante para el sentido de la vida.

Format : Matroska
Format version : Version 4 / Version 2
File size : 3.23 GiB
Duration : 1 h 15 min
Overall bit rate : 6 114 kb/s
Encoded date : UTC 2017-02-21 02:43:30
Writing application : mkvmerge v9.8.0 (‘Kuglblids’) 32bit
Writing library : libebml v1.3.4 + libmatroska v1.4.5

Video
ID : 1
Format : AVC
Format/Info : Advanced Video Codec
Format profile : High@L4.1
Format settings, CABAC : Yes
Format settings, ReFrames : 4 frames
Codec ID : V_MPEG4/ISO/AVC
Duration : 1 h 15 min
Bit rate : 6 000 kb/s
Width : 1 920 pixels
Height : 1 040 pixels
Display aspect ratio : 1.85:1
Frame rate mode : Constant
Frame rate : 23.976 (23976/1000) FPS
Original frame rate : 23.976 (24000/1001) FPS
Color space : YUV
Chroma subsampling : 4:2:0
Bit depth : 8 bits
Scan type : Progressive
Bits/(Pixel*Frame) : 0.125
Stream size : 3.17 GiB (98%)
Writing library : x264 core 142 r2479 dd79a61
Language : Japanese
Default : Yes
Forced : No
Color range : Limited
Color primaries : BT.709
Transfer characteristics : BT.709
Matrix coefficients : BT.709

Audio
ID : 2
Format : AAC
Format/Info : Advanced Audio Codec
Format profile : LC
Codec ID : A_AAC
Duration : 1 h 15 min
Bit rate : 112 kb/s
Channel(s) : 2 channels
Channel positions : Front: L R
Sampling rate : 48.0 kHz
Frame rate : 46.875 FPS (1024 spf)
Compression mode : Lossy
Delay relative to video : -83 ms
Stream size : 60.6 MiB (2%)
Title : Latino
Language : Spanish
Default : Yes
Forced : No

Password RAR para Descomprimir: www.cinelatinos.com

Ghost in the Shell 2: Innocence HD LATINO
Ghost in the Shell 2: Innocence HD LATINO
Ghost in the Shell 2: Innocence HD LATINO
Ghost in the Shell 2: Innocence HD LATINO
Ghost in the Shell 2: Innocence HD LATINO
Ghost in the Shell 2: Innocence HD LATINO
Ghost in the Shell 2: Innocence HD LATINO
Ghost in the Shell 2: Innocence HD LATINO
Ghost in the Shell 2: Innocence HD LATINO
Ghost in the Shell 2: Innocence HD LATINO
Ghost in the Shell 2: Innocence HD LATINO
Ghost in the Shell 2: Innocence HD LATINO
Ghost in the Shell 2: Innocence HD LATINO
Ghost in the Shell 2: Innocence HD LATINO
Ghost in the Shell 2: Innocence HD LATINO
Ghost in the Shell 2: Innocence HD LATINO
Ghost in the Shell 2: Innocence HD LATINO
Ghost in the Shell 2: Innocence HD LATINO
No links available
No downloads available

Traduce la web a tu idioma

AfrikaansAlbanianArabicArmenianAzerbaijaniBasqueBelarusianBulgarianCatalanChinese (Simplified)Chinese (Traditional)CroatianCzechDanishDutchEnglishEstonianFilipinoFinnishFrenchGalicianGeorgianGermanGreekHaitian CreoleHebrewHindiHungarianIcelandicIndonesianIrishItalianJapaneseKoreanLatvianLithuanianMacedonianMalayMalteseNorwegianPersianPolishPortugueseRomanianRussianSerbianSlovakSlovenianSpanishSwahiliSwedishThaiTurkishUkrainianUrduVietnameseWelshYiddish

Contador


contador de visitas para web

Películas relacionadas