Cinelatinos – Ver o Descargar Películas Gratis
Full HD1080p El desafío FULL HD LATINO
Reportar error

El desafío FULL HD LATINO

The Walk    

PG 123 min ActualizadasAventuraDramaSuspense

7.6
IMDB: 7.6/10 26,742 votos

, , ,

2 nominations.

USA

139

Reportar error

El desafio

El desafío FULL HD LATINO

El desafío, Basada en las memorias escritas por Philippe Petit (Joseph Gordon-Levitt), un funambulista francés que, en 1974, guiado por su mentor Papa Rudy (Ben Kingsley), se propuso un reto nunca antes realizado: recorrer sobre un cable el espacio que separaba las Torres Gemelas de Nueva York.

Format : Matroska
Format version : Version 4 / Version 2
File size : 3.26 GiB
Duration : 2 h 3 min
Overall bit rate : 3 790 kb/s
Movie name : El desafío FULL HD LATINO
Encoded date : UTC 2017-02-08 02:49:24
Writing application : mkvmerge v8.3.0 (‘Over the Horizon’) 64bit
Writing library : libebml v1.3.1 + libmatroska v1.4.2

Video
ID : 1
Format : AVC
Format/Info : Advanced Video Codec
Format profile : High@L4.1
Format settings, CABAC : Yes
Format settings, ReFrames : 4 frames
Codec ID : V_MPEG4/ISO/AVC
Duration : 2 h 3 min
Bit rate : 3 149 kb/s
Width : 1 920 pixels
Height : 1 080 pixels
Display aspect ratio : 16:9
Frame rate mode : Constant
Frame rate : 23.976 (24000/1001) FPS
Color space : YUV
Chroma subsampling : 4:2:0
Bit depth : 8 bits
Scan type : Progressive
Bits/(Pixel*Frame) : 0.063
Stream size : 2.71 GiB (83%)
Title : CINELATINOS.COM
Writing library : x264 core 148 r2579 73ae2d1
Encoding settings : cabac=1 / ref=3 / deblock=1:-1:-1 / analyse=0x3:0x113 / me=hex / subme=7 / psy=1 / psy_rd=1.00:0.15 / mixed_ref=1 / me_range=16 / chroma_me=1 / trellis=1 / 8x8dct=1 / cqm=0 / deadzone=21,11 / fast_pskip=1 / chroma_qp_offset=-3 / threads=12 / lookahead_threads=2 / sliced_threads=0 / nr=0 / decimate=1 / interlaced=0 / bluray_compat=0 / constrained_intra=0 / bframes=3 / b_pyramid=2 / b_adapt=1 / b_bias=0 / direct=1 / weightb=1 / open_gop=0 / weightp=2 / keyint=240 / keyint_min=23 / scenecut=40 / intra_refresh=0 / rc_lookahead=40 / rc=2pass / mbtree=1 / bitrate=3149 / ratetol=1.0 / qcomp=0.60 / qpmin=0 / qpmax=69 / qpstep=4 / cplxblur=20.0 / qblur=0.5 / vbv_maxrate=62500 / vbv_bufsize=78125 / nal_hrd=none / filler=0 / ip_ratio=1.40 / aq=1:1.00
Language : English
Default : Yes
Forced : No

Audio
ID : 2
Format : AC-3
Format/Info : Audio Coding 3
Mode extension : CM (complete main)
Format settings, Endianness : Big
Codec ID : A_AC3
Duration : 2 h 3 min
Bit rate mode : Constant
Bit rate : 640 kb/s
Channel(s) : 6 channels
Channel positions : Front: L C R, Side: L R, LFE
Sampling rate : 48.0 kHz
Frame rate : 31.250 FPS (1536 spf)
Bit depth : 16 bits
Compression mode : Lossy
Stream size : 564 MiB (17%)
Title : Español Latino –
Language : Spanish
Default : Yes
Forced : No

EL DESAFIO

VER ENLACES

CONTRASEÑA: www.cinelatinos.com

Password RAR para Descomprimir: www.cinelatinos.com

El desafío FULL HD LATINO
El desafío FULL HD LATINO
El desafío FULL HD LATINO
El desafío FULL HD LATINO
El desafío FULL HD LATINO
El desafío FULL HD LATINO
El desafío FULL HD LATINO
El desafío FULL HD LATINO
El desafío FULL HD LATINO
El desafío FULL HD LATINO
El desafío FULL HD LATINO
El desafío FULL HD LATINO
El desafío FULL HD LATINO
El desafío FULL HD LATINO
  • Descargar Servidor Audio / Idioma Calidad
  • Ver en linea Servidor Audio / Idioma Calidad

Traduce la web a tu idioma

AfrikaansAlbanianArabicArmenianAzerbaijaniBasqueBelarusianBulgarianCatalanChinese (Simplified)Chinese (Traditional)CroatianCzechDanishDutchEnglishEstonianFilipinoFinnishFrenchGalicianGeorgianGermanGreekHaitian CreoleHebrewHindiHungarianIcelandicIndonesianIrishItalianJapaneseKoreanLatvianLithuanianMacedonianMalayMalteseNorwegianPersianPolishPortugueseRomanianRussianSerbianSlovakSlovenianSpanishSwahiliSwedishThaiTurkishUkrainianUrduVietnameseWelshYiddish

Contador


contador de visitas para web

Películas relacionadas