Cinelatinos – Ver o Descargar Películas Gratis
3D SBS LATINO El desafío 3D SBS LATINO
Reportar error

El desafío 3D SBS LATINO

AventuraDramaSuspense

IMDB: /10 votos

Reportar error

EL DESAFIO 3D

El desafío 3D SBS LATINO

El desafío, Basada en las memorias escritas por Philippe Petit (Joseph Gordon-Levitt), un funambulista francés que, en 1974, guiado por su mentor Papa Rudy (Ben Kingsley), se propuso un reto nunca antes realizado: recorrer sobre un cable el espacio que separaba las Torres Gemelas de Nueva York.

Format : Matroska
Format version : Version 4 / Version 2
File size : 3.43 GiB
Duration : 2 h 3 min
Overall bit rate : 3 982 kb/s
Movie name : El desafío 3D FULL HD LATINO
Encoded date : UTC 2017-02-08 03:04:56
Writing application : mkvmerge v8.3.0 (‘Over the Horizon’) 64bit
Writing library : libebml v1.3.1 + libmatroska v1.4.2

Video
ID : 1
Format : AVC
Format/Info : Advanced Video Codec
Format profile : High@L4
Format settings, CABAC : Yes
Format settings, ReFrames : 4 frames
Codec ID : V_MPEG4/ISO/AVC
Duration : 2 h 3 min
Bit rate : 3 500 kb/s
Width : 1 920 pixels
Height : 1 080 pixels
Display aspect ratio : 16:9
Frame rate mode : Variable
Frame rate : 23.976 (24000/1001) FPS
Color space : YUV
Chroma subsampling : 4:2:0
Bit depth : 8 bits
Scan type : Progressive
Bits/(Pixel*Frame) : 0.070
Stream size : 3.01 GiB (88%)
Title : cinelatinos.com
Writing library : x264 core 142 r2479 dd79a61
Encoding settings : cabac=1 / ref=1 / deblock=1:-1:-1 / analyse=0x3:0x113 / me=hex / subme=2 / psy=1 / psy_rd=1.00:0.15 / mixed_ref=0 / me_range=16 / chroma_me=1 / trellis=0 / 8x8dct=1 / cqm=0 / deadzone=21,11 / fast_pskip=1 / chroma_qp_offset=0 / threads=12 / lookahead_threads=4 / sliced_threads=0 / nr=0 / decimate=1 / interlaced=0 / bluray_compat=0 / constrained_intra=0 / bframes=3 / b_pyramid=2 / b_adapt=1 / b_bias=0 / direct=1 / weightb=1 / open_gop=0 / weightp=1 / keyint=240 / keyint_min=24 / scenecut=40 / intra_refresh=0 / rc_lookahead=10 / rc=2pass / mbtree=1 / bitrate=3500 / ratetol=1.0 / qcomp=0.60 / qpmin=0 / qpmax=69 / qpstep=4 / cplxblur=20.0 / qblur=0.5 / vbv_maxrate=25000 / vbv_bufsize=31250 / nal_hrd=none / filler=0 / ip_ratio=1.40 / aq=1:1.00
Default : Yes
Forced : No
Color range : Limited
Color primaries : BT.709
Transfer characteristics : BT.709
Matrix coefficients : BT.709

Audio
ID : 2
Format : AC-3
Format/Info : Audio Coding 3
Mode extension : CM (complete main)
Format settings, Endianness : Big
Codec ID : A_AC3
Duration : 2 h 3 min
Bit rate mode : Constant
Bit rate : 448 kb/s
Channel(s) : 6 channels
Channel positions : Front: L C R, Side: L R, LFE
Sampling rate : 44.1 kHz
Frame rate : 28.711 FPS (1536 spf)
Bit depth : 16 bits
Compression mode : Lossy
Stream size : 395 MiB (11%)
Language : Spanish
Default : Yes
Forced : No

VER ENLACES

CONTRASEÑA: www.cinelatinos.com

Password RAR para Descomprimir: www.cinelatinos.com

El desafío 3D SBS LATINO
El desafío 3D SBS LATINO
El desafío 3D SBS LATINO
El desafío 3D SBS LATINO
El desafío 3D SBS LATINO
El desafío 3D SBS LATINO
El desafío 3D SBS LATINO
El desafío 3D SBS LATINO
El desafío 3D SBS LATINO
El desafío 3D SBS LATINO
El desafío 3D SBS LATINO
El desafío 3D SBS LATINO
El desafío 3D SBS LATINO
El desafío 3D SBS LATINO
No links available
No downloads available

Traduce la web a tu idioma

AfrikaansAlbanianArabicArmenianAzerbaijaniBasqueBelarusianBulgarianCatalanChinese (Simplified)Chinese (Traditional)CroatianCzechDanishDutchEnglishEstonianFilipinoFinnishFrenchGalicianGeorgianGermanGreekHaitian CreoleHebrewHindiHungarianIcelandicIndonesianIrishItalianJapaneseKoreanLatvianLithuanianMacedonianMalayMalteseNorwegianPersianPolishPortugueseRomanianRussianSerbianSlovakSlovenianSpanishSwahiliSwedishThaiTurkishUkrainianUrduVietnameseWelshYiddish

Contador


contador de visitas para web

Películas relacionadas